Labas, dabar tu esi lietuviškos torentų mainyklos TORENTAI.LT prieangyje.


TORENTAI.LT - neužsiima komercine veikla ir vienintelis tikslas dėl kurio mes veikiame, tai bendravimas ir asmeninės informacijos mainai.

Jeigu tu negali gyventi nesidalindamas su kitais - TORENTAI.LT skirtas kaip tik tau. Registruokis ir prisijunk!


Simpsonai 16 sezonas / The Simpsons : Season 16 (2004) [DVDRip] Komedija, animacija.

1 dalina

Smurfai: Kalėdų giesmė / The Smurfs: A Christmas Carol (2011) [DVDRip] Animacinis

1 dalina

Monstrų universitetas / Monsters University (2013) [HDTS LT/EN] Animacinis / Komedija / Nuotykių

2 dalina / 1 siurbia

Piratai! Nevykelių kompanija / The Pirates! Band of Misfits (2012) [BDRip] Nuotykiai, Animacija, Šeimai

2 dalina

Mažasis riteris Trenkas / Trenk, the Little Knight (2015)

2 dalina
Ieškoti

Siurbti Penguins of Madagascar (2014) [HDRIP EN ] Animation, Adventure, Comedy, Family

Siurbti

Siurbti Penguins of Madagascar 2014 HC HDRIP READNFO x264 AC3 ACAB.mkv.torrent Atsisiųsti suarchyvuotą į gzip

Detalės
Skyrius: Animacija
Dydis: 1.13 GB (1,214,778,653 baitai)
Įkeltas: 2014-12-27 14:22
Atsisiuntė: 51 (0 dalina, 0 siurbia = 0 susijungę)
Reitingas
  • Įvertinimas - 0, balsavo 0 (reikalingi bent 1 balsai)
Jau balsavai
Aprašymas

Penguins of Madagascar (2014)

Director(s): Eric Darnell, Simon J. Smith
Writer(s): Michael Colton, John Aboud, Brandon Sawyer, Alan J. Schoolcraft, Brent Simons
Cast: Tom McGrath, Chris Miller, Christopher Knights, Conrad Vernon, John Malkovich
IMDB: http://www.imdb.com/title/tt1911658/
Rating: 7.1 (8,665 votes)
Genres: Animation, Adventure, Comedy, Family
Runtime: 92 mins
Languages: English
Country(s): USA
Plot outline: Skipper, Kowalski, Rico and Private join forces with undercover organization The North Wind to stop the villainous Dr. Octavius Brine from destroying the world as we know it.



NFO Posted:

Cropped The Logo Instead Of A Blur Added Filters Etc Etc Enjoy...

Format : Matroska
Format version : Version 2
File size : 1.13 GiB
Duration : 1h 28mn
Overall bit rate : 1 835 Kbps
Encoded date : UTC 2014-12-25 21:12:45
Writing application : mkvmerge v7.0.0 ('Where We Going') 32bit built on Jun 9 2014 15:08:34
Writing library : libebml v1.3.0 + libmatroska v1.4.1

Video
ID : 1
Format : AVC
Format/Info : Advanced Video Codec
Format profile : High@L5.1
Format settings, CABAC : Yes
Format settings, ReFrames : 4 frames
Codec ID : V_MPEG4/ISO/AVC
Duration : 1h 28mn
Bit rate : 1 450 Kbps
Width : 720 pixels
Height : 368 pixels
Display aspect ratio : 1.957
Frame rate mode : Constant
Frame rate : 25.000 fps
Color space : YUV
Chroma subsampling : 4:2:0
Bit depth : 8 bits
Scan type : Progressive
Bits/(Pixel*Frame) : 0.219
Stream size : 893 MiB (77%)
Writing library : x264 core 142 r2431 ac76440
Encoding settings : cabac=1 / ref=4 / deblock=1:1:1 / analyse=0x3:0x113 / me=hex / subme=4 / psy=1 / psy_rd=0.40:0.00 / mixed_ref=0 / me_range=16 / chroma_me=0 / trellis=1 / 8x8dct=1 / cqm=0 / deadzone=21,11 / fast_pskip=1 / chroma_qp_offset=0 / threads=6 / lookahead_threads=1 / sliced_threads=0 / nr=0 / decimate=1 / interlaced=0 / bluray_compat=0 / constrained_intra=0 / bframes=5 / b_pyramid=2 / b_adapt=1 / b_bias=0 / direct=1 / weightb=1 / open_gop=0 / weightp=1 / keyint=250 / keyint_min=25 / scenecut=40 / intra_refresh=0 / rc_lookahead=20 / rc=abr / mbtree=1 / bitrate=1450 / ratetol=1.0 / qcomp=0.60 / qpmin=0 / qpmax=69 / qpstep=4 / ip_ratio=1.40 / aq=1:0.60
Language : English
Default : Yes
Forced : No

Audio
ID : 2
Format : AC-3
Format/Info : Audio Coding 3
Mode extension : CM (complete main)
Format settings, Endianness : Big
Codec ID : A_AC3
Duration : 1h 28mn
Bit rate mode : Constant
Bit rate : 384 Kbps
Channel(s) : 2 channels
Channel positions : Front: L R
Sampling rate : 48.0 KHz
Bit depth : 16 bits
Compression mode : Lossy
Stream size : 242 MiB (21%)
Language : English
Default : Yes
Forced : No

Info hash 7396689ca9e92c39142f36f0ea281ac812a4de81
Skyrius Animacija
Aktyvumas Paskutinį kartą buvo dalinamas prieš 1554d 08:07:21 (2015-09-07 20:15)
Dydis 1.13 GB (1,214,778,653 baitai)
Įkeltas 2014-12-27 14:22
Žiūrėjo 5398
Pasiėmė 968
Nuorodos į šį torentą
BBCode
HTML
Tiesioginė nuoroda
Pasižymėti
Žymės
adventure comedy family

Dar niekas nekomentavo


 

hit counter
| |
Powered by TB Dev SZ Edition © 2007 Nafania. Forum engine based on sources of phpBB © 2001, 2005 phpBB Group.  Į lietuvių kalbą verčia Torentai.lt Adminas