Labas, dabar tu esi lietuviškos torentų mainyklos TORENTAI.LT prieangyje.


TORENTAI.LT - neužsiima komercine veikla ir vienintelis tikslas dėl kurio mes veikiame, tai bendravimas ir asmeninės informacijos mainai.

Jeigu tu negali gyventi nesidalindamas su kitais - TORENTAI.LT skirtas kaip tik tau. Registruokis ir prisijunk!


Bjaurusis AŠ 2 / Despicable Me 2 (2013) [HDCAM] Šeimai, Animacija, Komedija

2 dalina

Zootropolis / Zootopia (2016) [DVDRip] šeimai, nuotykiai

1 dalina

Rio 2 / Rio 2 2014 BDRip XviD AC3 LT–Morpheus

1 dalina

Medžioklės sezonas atidarytas 3 / Open Season 3 (2010) [BDRip] Nuotykių, Komedija, Animacinis

2 dalina

Maša ir Lokys - Paskambink man / Маша и Медведь: Позвони мне, позвони! (2010) [BDRip] Animacinis,Nuotykių,Šeimai

1 dalina
Ieškoti

Siurbti Pakalikai / Minions (2015) [HC HDRip LT EN] Komedija, Animacija, Šeimai Auksas

Siurbti

Siurbti Minions.2015.HC.HDRip.LT.EN-mVx.mkv.torrent Atsisiųsti suarchyvuotą į gzip

Detalės
Skyrius: Animacija -> Kompiuterinė
Dydis: 1.43 GB (1,537,093,410 baitai)
Įkeltas: 2018-05-20 21:29
Atsisiuntė: 655 (2 dalina, 0 siurbia = 2 susijungę)
Reitingas
  • Įvertinimas - 4, balsavo 5 (reikalingi bent 1 balsai)
Jau balsavai
Aprašymas


Pakalikai

Premjera: Birželio 18, 2015
Premjera Lietuvoje: Liepos 3, 2015
Trukmė: 01:30:51
Žanras: Komedija, Animacija, Šeimai
Šalis: JAV
Režisavo: Kyle Balda, Pierre Coffin
Vaidina: Michael Keaton, Sandra Bullock, Allison Janney, Katy Mixon, Jon Hamm …

Įgarsinimas: Lietuvių k., mėgėjiškas vienbalsis (anDvinas, mVx komanda) / Anglų k. (originalus)

Nuorodos:
http://www.obuolys.lt/kinozona/filmas/15458-pakalikai.html
http://www.imdb.com/title/tt2293640/


Siužetas:

Seniai seniai Žemėje gyveno geltoni vienaląsčiai organizmai, pakalikai, dar žinomi kaip pimpačkiukai, tarnavę įvairiausiems niekingiems valdovams nuo gigantiškojo aštriadančio T- Rex iki mažiau gigantiško Napoleono. Tačiau vieną dieną, netikėtai jiems patiems, pakalikai suprato likę be šeimininko. Geltonųjų kolonijai atėjo gilios depresijos laikai...

Tuomet vienas jų, ryžtingasis Kevinas, sugalvoja planą ir, drauge su maištaujančiu paaugliu Stiuartu bei viso pasaulio mielumo įsikūnijimu mažuoju Bobu, leidžiasi į platųjį pasaulį laimės (ir naujo, labai blogo, šeimininko giminei) ieškoti!

Trijulės nuotykių horizonte – ne tik jaudinančios pažintys (tarkim su potencialia klano šeimininke, pirmąja pasaulio moterimi super-niekše Scarlet Overkill), bet ir kelionė nuo Antarktidos ligi 1960-ųjų rokenrolo ritmu alsuojančio Niujorko! Deja, jai lemta baigtis ūkanotam Londone, kur mažieji bičiuliai atsiduria akistatoje su pačiu didžiausiu gyvenime iššūkiu – išgelbėti Pakalikų rasę nuo...sunaikinimo.

Quote:
Video
ID : 1
Format : MPEG-4 Visual
Format profile : Advanced Simple@L5
Format settings, BVOP : Yes
Format settings, QPel : No
Format settings, GMC : No warppoints
Format settings, Matrix : Default (H.263)
Codec ID : V_MS/VFW/FOURCC / XVID
Codec ID/Hint : XviD
Duration : 1h 30mn
Bit rate : 1 955 Kbps
Width : 720 pixels
Height : 384 pixels
Display aspect ratio : 1.85:1
Frame rate mode : Constant
Frame rate : 24.000 fps
Color space : YUV
Chroma subsampling : 4:2:0
Bit depth : 8 bits
Scan type : Progressive
Compression mode : Lossy
Bits/(Pixel*Frame) : 0.295
Stream size : 1.24 GiB (87%)
Writing library : XviD 66
Default : Yes
Forced : No

Audio #1
ID : 2
Format : MPEG Audio
Format version : Version 1
Format profile : Layer 3
Codec ID : A_MPEG/L3
Codec ID/Hint : MP3
Duration : 1h 30mn
Bit rate mode : Constant
Bit rate : 128 Kbps
Channel(s) : 2 channels
Sampling rate : 48.0 KHz
Compression mode : Lossy
Stream size : 83.2 MiB (6%)
Writing library : LAME3.99r
Encoding settings : -m s -V 4 -q 3 -lowpass 17 -b 128
Language : Lithuanian
Default : Yes
Forced : No

Audio #2
ID : 3
Format : MPEG Audio
Format version : Version 1
Format profile : Layer 3
Mode : Joint stereo
Mode extension : MS Stereo
Codec ID : A_MPEG/L3
Codec ID/Hint : MP3
Duration : 1h 30mn
Bit rate mode : Variable
Bit rate : 128 Kbps
Channel(s) : 2 channels
Sampling rate : 48.0 KHz
Compression mode : Lossy
Stream size : 83.2 MiB (6%)
Language : English
Default : No
Forced : No





Filme yra korėjietiški subtitrai, kurių panaikinti neįmanoma.
Info hash 56a752a9d8287eaa4eaa21113bc40bf27a50342a
Skyrius Animacija -> Kompiuterinė
Aktyvumas Paskutinį kartą buvo dalinamas prieš 3min:15s (2018-08-20 02:04)
Dydis 1.43 GB (1,537,093,410 baitai)
Įkeltas 2018-05-20 21:29
Žiūrėjo 8248
Pasiėmė 1865
Panašūs torentai
  Skyrius Pavadinimas Dydis D|S
Nuorodos į šį torentą
BBCode
HTML
Tiesioginė nuoroda
Pasižymėti
Žymės
šeimai animacija




rokis6  0
KomentarasParašyta 2015-08-30 07:30
Kingizuris



Įvertink: 0

Imeskit 3D ;-)
 
Daivaras2014  3
KomentarasParašyta 2015-10-07 14:31
Superpatriotas


Įvertink: 0

aciu uz filma sunus jum dekingas :-D
 
TitasSiustis  0
KomentarasParašyta 2016-04-20 16:54
Naujokėlis


Įvertink: -1

Blogas vertimas. Ir kokybė prasta, nors rašo HDRip. :-|
 
Pažymėtas: Dewil

 

hit counter
| |
Powered by TB Dev SZ Edition © 2007 Nafania. Forum engine based on sources of phpBB © 2001, 2005 phpBB Group.  Į lietuvių kalbą verčia Torentai.lt Adminas