Labas, dabar tu esi lietuviškos torentų mainyklos TORENTAI.LT prieangyje.


TORENTAI.LT - neužsiima komercine veikla ir vienintelis tikslas dėl kurio mes veikiame, tai bendravimas ir asmeninės informacijos mainai.

Jeigu tu negali gyventi nesidalindamas su kitais - TORENTAI.LT skirtas kaip tik tau. Registruokis ir prisijunk!


Q Troškimas / Q Desire (2011) [BDRip LT] Drama, Erotika-P2P

1 dalina

Brėkštanti aušra. 2 dalis / The Twilight Saga: Breaking Dawn - Part 2 (2012) [BDRip LT/EN] Nuotykiai / Drama / Fantastinis

1 dalina

Naktis su uošviu / All Nighter (2017) [BDRip] Komedija

3 dalina

Visko teorija / The Theory of Everything (2014) [WEBRip LT/EN] Biografinis / Drama / Romantinis

3 dalina

The Salvation 2014 BDRip x264 AAC LT EN

1 dalina / 1 siurbia
Ieškoti

Siurbti Pay the Ghost 2015 WEBDL x264 AC3 LT EN LTsub

Siurbti

Siurbti Pay.the.Ghost.2015.WEBDL.x264.AC3.LT.EN.LTsub-mVx.mkv.torrent Atsisiųsti suarchyvuotą į gzip

Detalės
Skyrius: Filmai LT
Dydis: 1.46 GB (1,565,709,352 baitai)
Įkeltas: 2018-02-25 22:21
Atsisiuntė: 417 (0 dalina, 0 siurbia = 0 susijungę)
Reitingas
  • Įvertinimas - 0, balsavo 0 (reikalingi bent 1 balsai)
Jau balsavai
Aprašymas


Aprašymas: Praėjus metams po to, kai Helouvino karnavalo metu dingsta jo sūnus, profesorius Maikas Laufordas (akt. Nicolas Cage) vis dar yra kamuojamas keistų vaizdinių ir sulaukia siaubingų, nepaaiškinamų ir nesuprantamų žinučių. Todėl kartu su savo žmona Kristen (akt. Sarah Wayne Callies) jie bando padaryti viską, kad iššifruotų gaunamas žinutes ir surastų savo keistomis bei paranormaliomis aplinkybėmis dingusį sūnų. Tačiau tai darydami jie nenorom atskleidžia kraupią legendą, kuri atsisako tūnoti praeityje.

Metai: 2015
Žanras: Siaubo, Trileriai
Trukmė: 01:32:06
Režisavo: Uli Edel
Vaidina: Nicolas Cage, Sarah Wayne Callies, Veronica Ferres, Lyriq Bent, Lauren Beatty, Kalie Hunter, Jack Fulton, Stephen McHattie, Mark Irvingsen...

Įgarsinimas: Lietuvių k., mėgėjiškas vienbalsis (anDvinas, mVx komanda) / Anglų k. (originalus)
Subtitrai: Lietuvių k., mėgėjiški

Ratings: 5,2/10 from 2 784 users




Video
ID : 1
Format : AVC
Format/Info : Advanced Video Codec
Format profile : High@L4.1
Format settings, CABAC : Yes
Format settings, ReFrames : 6 frames
Codec ID : V_MPEG4/ISO/AVC
Duration : 1h 32mn
Bit rate : 1 900 Kbps
Width : 1 024 pixels
Height : 424 pixels
Display aspect ratio : 2.40:1
Frame rate mode : Constant
Frame rate : 23.976 fps
Standard : Component
Color space : YUV
Chroma subsampling : 4:2:0
Bit depth : 8 bits
Scan type : Progressive
Bits/(Pixel*Frame) : 0.183
Stream size : 1.18 GiB (81%)
Writing library : x264 core 144 r2525
Default : Yes
Forced : No

Audio #1
ID : 2
Format : AC-3
Format/Info : Audio Coding 3
Mode extension : CM (complete main)
Format settings, Endianness : Big
Codec ID : A_AC3
Duration : 1h 32mn
Bit rate mode : Constant
Bit rate : 192 Kbps
Channel(s) : 2 channels
Channel positions : Front: L R
Sampling rate : 44.1 KHz
Bit depth : 16 bits
Compression mode : Lossy
Delay relative to video : -83ms
Stream size : 126 MiB (8%)
Language : Lithuanian
Default : Yes
Forced : No

Audio #2
ID : 3
Format : AC-3
Format/Info : Audio Coding 3
Mode extension : CM (complete main)
Format settings, Endianness : Big
Codec ID : A_AC3
Duration : 1h 32mn
Bit rate mode : Constant
Bit rate : 192 Kbps
Channel(s) : 2 channels
Channel positions : Front: L R
Sampling rate : 48.0 KHz
Bit depth : 16 bits
Compression mode : Lossy
Delay relative to video : -83ms
Stream size : 126 MiB (8%)
Language : English
Default : No
Forced : No

Text
ID : 4
Format : UTF-8
Codec ID : S_TEXT/UTF8
Codec ID/Info : UTF-8 Plain Text
Language : Lithuanian
Default : No
Forced : No
Ekranvaizdžiai
.
Info hash beea8cd3654b7ed545e154bcaea74b0095e999ce
Skyrius Filmai LT
Aktyvumas Paskutinį kartą buvo dalinamas prieš 272d 01:54:04 (2018-06-20 15:03)
Dydis 1.46 GB (1,565,709,352 baitai)
Įkeltas 2018-02-25 22:21
Žiūrėjo 2792
Pasiėmė 689
Nuorodos į šį torentą
BBCode
HTML
Tiesioginė nuoroda
Pasižymėti
Žymės
Nėra žymių




renaska  0
KomentarasParašyta 2015-10-14 07:14
Naujokėlis


Įvertink: 0

Visiškas šlamštas, nei įtampos, nei intrigos - pasakas įdomiau pastato. Keista kad Cage\'s tokiame filme vaidina.

Taisė renaska 2015-10-23 08:04

 

 

hit counter
| |
Powered by TB Dev SZ Edition © 2007 Nafania. Forum engine based on sources of phpBB © 2001, 2005 phpBB Group.  Į lietuvių kalbą verčia Torentai.lt Adminas